ad banner
ad banner

Chaya O Chobi (2017) Bengali Movie – 2CD – Pre DvDScr Rip[Xvid – Mp3]

Chaya O Chobi (2017) Bengali Movie –
2CD – Pre DvDScr Rip[Xvid – Mp3]

General
Format                                   : AVI
Format/Info                              : Audio Video Interleave
File size                                : 1.40 GiB
Duration                                 : 2 h 33 min

ad banner

Video
ID                                       : 0
Format                                   : MPEG-4 Visual
Format profile                           : Advanced [email protected]
Format settings                          : BVOP1
Format settings, BVOP                    : 1
Format settings, QPel                    : No
Format settings, GMC                     : No warppoints
Format settings, Matrix                  : Default (H.263)
Codec ID                                 : XVID
Duration                                 : 2 h 33 min
Bit rate                                 : 1 173 kb/s
Width                                    : 720 pixels
Height                                   : 344 pixels
Display aspect ratio                     : 2.093
Frame rate                               : 25.000 FPS
Color space                              : YUV
Chroma subsampling                       : 4:2:0
Bit depth                                : 8 bits
Scan type                                : Progressive
Compression mode                         : Lossy
Bits/(Pixel*Frame)                       : 0.189
Stream size                              : 1.26 GiB (90%)

Audio
ID                                       : 1
Format                                   : MPEG Audio
Format version                           : Version 1
Format profile                           : Layer 3
Format settings                          : Joint stereo / MS Stereo
Mode                                     : Joint stereo
Mode extension                           : MS Stereo
Codec ID                                 : 55
Codec ID/Hint                            : MP3
Duration                                 : 2 h 33 min
Bit rate mode                            : Constant
Bit rate                                 : 128 kb/s
Channel(s)                               : 2 channels
Sampling rate                            : 48.0 kHz
Stream size                              : 141 MiB (10%)

bdupload. Download Link
bdupload. Download Link
OR
indishare Download Link
indishare Download Link
OR
openload Download Link
openload Download Link