ad banner
ad banner

Chocolate (Bengali Movie) – 2CD – N/R DvD Rip[Mp4 – AAC3(2Ch)]

Chocolate (Bengali Movie) – 2CD –
N/R DvD Rip[Mp4 – AAC3(2Ch)]

General
Format                                   : MPEG-4
Format profile                           : Base Media
Codec ID                                 : isom (isom)
File size                                : 1.40 GiB
Duration                                 : 2 h 12 min

ad banner

Video
ID                                       : 1
Format                                   : AVC
Format/Info                              : Advanced Video Codec
Format profile                           : [email protected]
Format settings, CABAC                   : Yes
Format settings, RefFrames               : 4 frames
Codec ID                                 : avc1
Codec ID/Info                            : Advanced Video Coding
Duration                                 : 2 h 12 min
Bit rate                                 : 1 387 kb/s
Maximum bit rate                         : 4 749 kb/s
Width                                    : 720 pixels
Height                                   : 304 pixels
Display aspect ratio                     : 2.35:1
Frame rate mode                          : Constant
Frame rate                               : 25.000 FPS
Color space                              : YUV
Chroma subsampling                       : 4:2:0
Bit depth                                : 8 bits
Scan type                                : Progressive
Bits/(Pixel*Frame)                       : 0.253
Stream size                              : 1.28 GiB (91%)

Audio
ID                                       : 2
Format                                   : AAC
Format/Info                              : Advanced Audio Codec
Format profile                           : LC
Codec ID                                 : 40
Duration                                 : 2 h 12 min
Bit rate mode                            : Variable
Bit rate                                 : 128 kb/s
Maximum bit rate                         : 134 kb/s
Channel(s)                               : 2 channels
Channel positions                        : Front: L R
Sampling rate                            : 48.0 kHz
Stream size                              : 121 MiB (8%)

bdupload. Download Link
bdupload. Download Link
OR
indishare Download Link
indishare Download Link
OR
openload Download Link
openload Download Link