ad banner
ad banner

Mandobasar Galpo (2017) Bengali Movie -1CD – DvDScr Rip Clean Audio 700MB

Mandobasar Galpo (2017) Bengali Movie -1CD – DvDScr Rip Clean Audio 700MB

General
Format                                   : Matroska
Format version                           : Version 2
File size                                : 700 MiB
Duration                                 : 2 h 4 min

Video
ID                                       : 1
Format                                   : AVC
Format/Info                              : Advanced Video Codec
Format profile                           : [email protected]
Format settings, CABAC                   : Yes
Format settings, ReFrames                : 4 frames
Codec ID                                 : V_MPEG4/ISO/AVC
Duration                                 : 2 h 4 min
Bit rate                                 : 719 kb/s
Width                                    : 720 pixels
Height                                   : 368 pixels
Display aspect ratio                     : 1.957
Frame rate mode                          : Constant
Frame rate                               : 25.000 FPS
Color space                              : YUV
Chroma subsampling                       : 4:2:0
Bit depth                                : 8 bits
Scan type                                : Progressive
Bits/(Pixel*Frame)                       : 0.109
Stream size                              : 642 MiB (92%)

Audio
ID                                       : 2
Format                                   : AAC
Format/Info                              : Advanced Audio Codec
Format profile                           : HE-AAC / LC
Codec ID                                 : A_AAC
Duration                                 : 2 h 4 min
Bit rate                                 : 64.0 kb/s
Channel(s)                               : 2 channels
Channel positions                        : Front: L R
Sampling rate                            : 48.0 kHz / 24.0 kHz
Stream size                              : 57.1 MiB (8%)

bdupload.info

indishare.me

clicknupload.org

9xupload.me

openupload

hdupload.net

ad banner

uptocafe.com

uploads.to

uptobox